Play69 – Babylon (2018) [24bit Hi-Res]

Play69 – Babylon 24 bit

Play69 - Babylon (2018) 24bit Hi-Res flac

Year Of Release: 2018
Genre: Hip-Hop
Format: Flac, Tracks 
Bitrate: lossless, 24bit
Total Size: 738 MB


01. Play69 - Sie rufen wieder an (02:39) 02. Play69 - Para machen irgendwie (03:01) 03. Play69 - Bube Dame König Ass (02:50) 04. Play69 - Rausgehen (feat. Musiye) (03:23) 05. Play69 - Damager (02:55) 06. Play69 - Helal Money Gang (feat. Farid Bang) (04:00) 07. Play69 - Rockafella (03:15) 08. Play69 - Offensiv (feat. KC Rebell) (03:03) 09. Play69 - Ihr seid nicht wir (02:45) 10. Play69 - 44 Stiche (feat. 18 Karat) (03:10) 11. Play69 - Automatik Tommygun (03:25) 12. Play69 - Welcome to Babylon (02:49) 13. Play69 - Babylon (02:50) 14. Play69 - Viertel (feat. Mo Trip) (03:31) 15. Play69 - Rap hat mich verraten (feat. 18 Karat) (03:06) 16. Play69 - Auf der Strasse Gold (03:04) 17. Play69 - Ziemlich sicher (02:52) 18. Play69 - Bitte spitte Fatality (02:39) 19. Play69 - Calle (feat. Niqo Nuevo) (03:16) 20. Play69 - Was die Straße braucht (02:37) 21. Play69 - Distanz (03:04)
Sample Rate: 24/44.1
  1. Dynamic Range Meter


    foobar2000 1.3.16 / Dynamic Range Meter 1.1.1
    log date: 2018-01-12 18:31:26

    --------------------------------------------------------------------------------
    Analyzed: Play69 / Babylon
    --------------------------------------------------------------------------------

    DR Peak RMS Duration Track
    --------------------------------------------------------------------------------
    DR6 -0.31 dB -8.47 dB 2:39 01-Sie rufen wieder an
    DR5 -0.30 dB -7.37 dB 3:01 02-Para machen irgendwie
    DR7 -0.31 dB -8.78 dB 2:51 03-Bube Dame König Ass
    DR5 -0.30 dB -7.33 dB 3:24 04-Rausgehen (feat. Musiye)
    DR5 -0.31 dB -7.13 dB 2:56 05-Damager
    DR5 -0.30 dB -7.04 dB 4:00 06-Helal Money Gang (feat. Farid Bang)
    DR5 -0.20 dB -6.77 dB 3:15 07-Rockafella
    DR5 -0.30 dB -7.26 dB 3:03 08-Offensiv (feat. KC Rebell)
    DR6 -0.31 dB -8.17 dB 2:45 09-Ihr seid nicht wir
    DR5 -0.30 dB -6.91 dB 3:10 10-44 Stiche (feat. 18 Karat)
    DR6 -0.31 dB -7.60 dB 3:25 11-Automatik Tommygun
    DR6 -0.30 dB -7.96 dB 2:50 12-Welcome to Babylon
    DR7 -0.31 dB -9.44 dB 2:51 13-Babylon
    DR7 -0.30 dB -9.66 dB 3:32 14-Viertel (feat. Mo Trip)
    DR6 -0.31 dB -8.80 dB 3:07 15-Rap hat mich verraten (feat. 18 Karat)
    DR7 -0.30 dB -9.73 dB 3:05 16-Auf der Strasse Gold
    DR6 -0.30 dB -8.38 dB 2:53 17-Ziemlich sicher
    DR5 -0.34 dB -7.50 dB 2:40 18-Bitte spitte Fatality
    DR5 -0.30 dB -7.51 dB 3:17 19-Calle (feat. Niqo Nuevo)
    DR5 -0.34 dB -7.91 dB 2:37 20-Was die Straße braucht
    DR5 -0.30 dB -7.86 dB 3:05 21-Distanz
    --------------------------------------------------------------------------------

    Number of tracks: 21
    Official DR value: DR6

    Samplerate: 44100 Hz
    Channels: 2
    Bits per sample: 24
    Bitrate: 1581 kbps
    Codec: FLAC
    ================================================================================


Related posts

Leave a Reply

Your email address will not be published. Required fields are marked *